Information ausblenden

CD-Text Album-Info einfügen?

Dieses Thema im Forum "Windows und Musik" wurde erstellt von Ennui, 26.08.19.

Schlagworte:
Status des Themas:
Beachte, dass dieses Thema älter als ein Jahr ist! Möglicherweise ist es sinnvoller, einen neuen Thread zu erstellen.
  1. Ennui

    Ennui Themenersteller Triangelspieler

    Registriert seit:
    28.02.16
    Punkte:
    3.901
    3901
    Hi Leute,

    kann man beim CD-Text (Klick) einen Wert fürs Album einfügen?
    Ich hatte ImgBurn benutzt, um diese Cue-Datei zu erstellen:

    FILE "D:\Dateipfad\Blalala1.wav" WAVE
    REM FILE-DECODED-SIZE 04:13:11

    TRACK 01 AUDIO
    TITLE "Blalala1"
    PERFORMER "Ennui"
    INDEX 01 00:00:00
    FILE "D:\Dateipfad\Blalala2.wav" WAVE
    REM FILE-DECODED-SIZE 04:14:59

    TRACK 02 AUDIO
    TITLE "Blalala2"
    PERFORMER "Ennui"
    INDEX 01 00:00:00
    FILE "D:\Dateipfad\Blalala3.wav" WAVE
    REM FILE-DECODED-SIZE 03:15:24

    TRACK 03 AUDIO
    TITLE "Blalala3"
    PERFORMER "Ennui"
    INDEX 01 00:00:00

    Keine Angabe für Album.

    Wenn ich meine CD in den Player schmeiß, wird mir als Albumtitel ein "?" angezeigt.
    Klar, ich könnte einfach meine nächsten Longplayer alle so nennen und dann passt es, aber vielleicht hat jemand eine Idee, wie man da was eintragen könnte - gerne auch mit anderer Software.

    Danke für eure Tipps!
     
    Ennui, 26.08.19
    #1
Status des Themas:
Beachte, dass dieses Thema älter als ein Jahr ist! Möglicherweise ist es sinnvoller, einen neuen Thread zu erstellen.